osu file format v14

[General]
AudioFilename: Ending Theme Tokohana.mp3
AudioLeadIn: 1500
PreviewTime: 63067
Countdown: 0
SampleSet: Soft
StackLeniency: 0.7
Mode: 3
LetterboxInBreaks: 0
WidescreenStoryboard: 0

[Editor]
DistanceSpacing: 0.5
BeatDivisor: 4
GridSize: 4
TimelineZoom: 1.5

[Metadata]
Title:Tokohana
TitleUnicode:トコハナ
Artist:yanaginagi
ArtistUnicode:やなぎなぎ
Creator:richardfeder
Version:S.Star's 7K EZ
Source:ブラック・ブレット
Tags:Black Bullet ending victorica_db simple_star Zan -
BeatmapID:415326
BeatmapSetID:170144

[Difficulty]
HPDrainRate:6
CircleSize:7
OverallDifficulty:6
ApproachRate:5
SliderMultiplier:1.4
SliderTickRate:1

[Events]
//Background and Video events
0,0,"bg1.jpg",0,0
//Break Periods
//Storyboard Layer 0 (Background)
//Storyboard Layer 1 (Fail)
//Storyboard Layer 2 (Pass)
//Storyboard Layer 3 (Foreground)
//Storyboard Sound Samples
//Background Colour Transformations
3,100,163,162,255

[TimingPoints]
395,400,4,2,0,20,1,0
495,-88.4955752212389,4,2,0,20,0,0
19073,355.029585798817,4,2,0,30,1,0
53155,-133.333333333333,4,2,0,20,0,0
63096,-100,4,2,0,30,0,0

[HitObjects]
329,192,19073,5,0,0:0:0:0:
182,192,19073,1,0,0:0:0:0:
109,192,19428,1,0,0:0:0:50:snare1.wav
402,192,19428,1,0,0:0:0:0:
256,192,19783,1,0,0:0:0:0:
36,192,20138,1,0,0:0:0:50:snare1.wav
329,192,20138,1,0,0:0:0:0:
256,192,20493,1,0,0:0:0:0:
182,192,20848,1,0,0:0:0:50:snare1.wav
475,192,20848,1,0,0:0:0:0:
329,192,21203,1,0,0:0:0:0:
109,192,21558,1,0,0:0:0:50:snare1.wav
402,192,21558,1,0,0:0:0:0:
182,192,21913,1,0,0:0:0:0:
36,192,22268,1,0,0:0:0:50:snare1.wav
329,192,22268,1,0,0:0:0:0:
182,192,22623,1,0,0:0:0:0:
329,192,22978,1,0,0:0:0:50:snare1.wav
475,192,22978,1,0,0:0:0:0:
182,192,23333,1,0,0:0:0:0:
109,192,23688,1,0,0:0:0:50:snare1.wav
402,192,23688,1,0,0:0:0:0:
256,192,24043,1,0,0:0:0:0:
36,192,24398,1,0,0:0:0:50:snare1.wav
182,192,24398,128,0,24753:0:0:0:0:
329,192,24753,1,0,0:0:0:0:snare1.wav
256,192,25108,1,0,0:0:0:50:snare1.wav
402,192,25108,1,0,0:0:0:0:
109,192,25463,1,0,0:0:0:0:
329,192,25818,1,0,0:0:0:50:snare1.wav
475,192,25818,1,0,0:0:0:0:
256,192,26173,1,0,0:0:0:0:
36,192,26528,1,0,0:0:0:50:snare1.wav
182,192,26528,1,0,0:0:0:0:
402,192,26883,1,0,0:0:0:0:
109,192,27238,1,0,0:0:0:50:snare1.wav
256,192,27238,1,0,0:0:0:0:
329,192,27593,1,0,0:0:0:0:
182,192,27948,1,0,0:0:0:50:snare1.wav
475,192,27948,1,0,0:0:0:0:
329,192,28303,1,0,0:0:0:0:
36,192,28658,1,0,0:0:0:50:snare1.wav
182,192,28658,1,0,0:0:0:0:
402,192,28658,1,0,0:0:0:0:
182,192,29013,1,4,0:0:0:50:snare1.wav
402,192,29013,1,0,0:0:0:0:
109,192,29368,1,0,0:0:0:0:
329,192,29546,1,0,0:0:0:0:
182,192,29723,1,0,0:0:0:0:
402,192,29901,1,0,0:0:0:0:
256,192,30078,1,0,0:0:0:0:
475,192,30256,1,0,0:0:0:0:
182,192,30433,1,4,0:0:0:0:
36,192,30433,1,0,0:0:0:0:
329,192,30788,1,0,0:0:0:0:
182,192,31144,1,0,0:0:0:0:
329,192,31499,1,0,0:0:0:0:
182,192,31854,1,0,0:0:0:0:
329,192,32209,1,0,0:0:0:0:
475,192,32564,1,0,0:0:0:0:
329,192,32919,1,0,0:0:0:0:
182,192,33274,1,2,0:0:0:0:
36,192,33629,1,0,0:0:0:0:
402,192,33984,1,0,0:0:0:0:
36,192,34339,1,0,0:0:0:0:
402,192,34694,1,0,0:0:0:0:
256,192,35049,1,0,0:0:0:0:
109,192,35404,1,0,0:0:0:0:
36,192,35759,1,2,0:0:0:0:
475,192,36114,1,2,0:0:0:0:
329,192,36469,1,0,0:0:0:0:
182,192,36824,1,0,0:0:0:0:
329,192,37179,1,0,0:0:0:0:
109,192,37534,1,0,0:0:0:0:
256,192,37889,1,0,0:0:0:0:
402,192,38244,1,0,0:0:0:0:
329,192,38599,128,4,38954:0:0:0:0:
36,192,38954,1,4,0:0:0:0:
182,192,38954,1,0,0:0:0:0:
402,192,39132,1,0,0:0:0:0:
182,192,39309,1,0,0:0:0:50:snare1.wav
402,192,39664,1,0,0:0:0:0:
182,192,39842,1,0,0:0:0:0:
402,192,40019,1,0,0:0:0:50:snare1.wav
402,192,40197,1,0,0:0:0:0:
36,192,40374,1,4,0:0:0:0:
182,192,40374,1,0,0:0:0:0:
475,192,40729,1,0,0:0:0:50:snare1.wav
329,192,40907,1,0,0:0:0:0:
182,192,41084,128,0,41439:0:0:0:0:
402,192,41439,1,0,0:0:0:50:snare1.wav
329,192,41617,128,0,41794:0:0:0:0:
109,192,41794,1,4,0:0:0:0:snare1.wav
182,192,42149,1,0,0:0:0:50:snare1.wav
402,192,42504,1,0,0:0:0:0:
329,192,42682,1,0,0:0:0:0:
182,192,42859,1,0,0:0:0:50:snare1.wav
329,192,43215,1,0,0:0:0:0:
182,192,43392,1,0,0:0:0:0:
109,192,43570,1,0,0:0:0:50:snare1.wav
36,192,43925,1,0,0:0:0:0:
182,192,44102,1,0,0:0:0:0:
329,192,44280,1,0,0:0:0:50:snare1.wav
475,192,44635,1,0,0:0:0:0:
329,192,44812,1,0,0:0:0:0:
182,192,44990,1,0,0:0:0:50:snare1.wav
109,192,45345,1,0,0:0:0:0:
256,192,45522,1,0,0:0:0:0:
402,192,45700,1,0,0:0:0:50:snare1.wav
36,192,46055,1,0,0:0:0:0:
329,192,46232,1,0,0:0:0:0:
182,192,46410,1,0,0:0:0:50:snare1.wav
475,192,46765,1,0,0:0:0:0:
182,192,46942,1,0,0:0:0:0:
329,192,47120,1,0,0:0:0:50:snare1.wav
109,192,47475,1,4,0:0:0:0:
402,192,47475,1,0,0:0:0:0:
182,192,47830,1,0,0:0:0:50:snare1.wav
329,192,48007,1,0,0:0:0:0:
109,192,48185,1,0,0:0:0:0:
402,192,48362,1,0,0:0:0:0:
182,192,48540,1,0,0:0:0:50:snare1.wav
329,192,48717,1,0,0:0:0:0:
182,192,48895,128,0,49250:0:0:0:0:
402,192,49250,128,0,49605:0:0:0:0:
109,192,49605,128,0,49960:0:0:0:0:
329,192,49960,128,4,50315:0:0:0:0:
182,192,50315,1,0,0:0:0:0:
475,192,50315,128,0,50848:0:0:0:0:
109,192,51380,1,0,0:0:0:50:snare1.wav
329,192,51735,1,0,0:0:0:0:
182,192,51913,1,0,0:0:0:0:
475,192,52090,1,0,0:0:0:0:
329,192,52090,1,0,0:0:0:50:snare1.wav
109,192,52445,1,0,0:0:0:0:
329,192,52623,1,0,0:0:0:50:snare1.wav
109,192,52800,1,0,0:0:0:50:snare1.wav
109,192,52978,1,0,0:0:0:50:snare1.wav
329,192,53155,1,0,0:0:0:0:
475,192,53155,1,0,0:0:0:0:
182,192,54575,1,0,0:0:0:0:
109,192,55286,1,0,0:0:0:0:
256,192,55463,1,0,0:0:0:0:
402,192,55641,1,0,0:0:0:0:
182,192,55996,1,0,0:0:0:0:
475,192,55996,1,0,0:0:0:0:
329,192,56706,1,0,0:0:0:0:
402,192,57416,1,0,0:0:0:0:
182,192,58126,1,0,0:0:0:0:
256,192,58303,1,0,0:0:0:0:
329,192,58481,1,0,0:0:0:0:
109,192,58836,1,0,0:0:0:0:
182,192,59546,1,0,0:0:0:0:
329,192,60256,1,0,0:0:0:0:
402,192,60966,1,0,0:0:0:0:
256,192,61144,1,0,0:0:0:0:
109,192,61321,1,0,0:0:0:0:
475,192,61676,1,4,0:0:0:0:
109,192,61676,128,0,63096:0:0:0:0:
36,192,64516,1,0,0:0:0:0:
329,192,64516,1,0,0:0:0:0:
182,192,64871,1,0,0:0:0:50:snare1.wav
475,192,65226,1,0,0:0:0:0:
329,192,65581,1,0,0:0:0:50:snare1.wav
109,192,65936,1,0,0:0:0:0:
402,192,66291,1,0,0:0:0:50:snare1.wav
182,192,66646,1,0,0:0:0:0:
402,192,67001,1,0,0:0:0:50:snare1.wav
182,192,67357,1,0,0:0:0:0:
402,192,67712,1,0,0:0:0:50:snare1.wav
36,192,68067,1,0,0:0:0:0:
182,192,68244,1,0,0:0:0:0:
329,192,68422,1,0,0:0:0:50:snare1.wav
402,192,68777,1,0,0:0:0:0:
109,192,68954,1,0,0:0:0:0:
329,192,69132,1,0,0:0:0:50:snare1.wav
182,192,69309,1,0,0:0:0:0:
402,192,69487,1,0,0:0:0:0:
109,192,69664,1,0,0:0:0:0:
402,192,69842,1,0,0:0:0:50:snare1.wav
109,192,70019,1,0,0:0:0:0:
329,192,70197,1,0,0:0:0:0:
475,192,70197,1,0,0:0:0:0:
182,192,70552,1,0,0:0:0:50:snare1.wav
36,192,70907,1,0,0:0:0:0:
256,192,71262,1,0,0:0:0:50:snare1.wav
402,192,71617,1,0,0:0:0:0:
109,192,71972,1,0,0:0:0:50:snare1.wav
256,192,72327,1,0,0:0:0:0:
402,192,72682,1,4,0:0:0:50:snare1.wav
182,192,72682,1,4,0:0:0:0:
182,192,73037,1,4,0:0:0:0:
402,192,73037,1,0,0:0:0:0:
36,192,73037,1,0,0:0:0:0:
109,192,73570,1,4,0:0:0:0:
402,192,73570,1,0,0:0:0:0:
475,192,74280,1,0,0:0:0:0:
329,192,74280,1,0,0:0:0:0:
109,192,74280,1,0,0:0:0:0:
182,192,74635,1,0,0:0:0:50:snare1.wav
329,192,74812,1,0,0:0:0:50:snare1.wav
182,192,74990,1,0,0:0:0:50:snare1.wav
329,192,75167,1,0,0:0:0:50:snare1.wav
36,192,75167,1,0,0:0:0:0:
402,192,75522,128,0,75877:0:0:0:0:
36,192,75877,1,4,0:0:0:0:
182,192,75877,1,0,0:0:0:0:
402,192,76232,1,4,0:0:0:50:snare1.wav
182,192,76587,1,0,0:0:0:0:
475,192,76942,1,0,0:0:0:50:snare1.wav
256,192,77297,1,0,0:0:0:0:
36,192,77652,1,0,0:0:0:50:snare1.wav
182,192,78007,1,0,0:0:0:0:
402,192,78362,1,0,0:0:0:50:snare1.wav
109,192,78717,1,0,0:0:0:0:
329,192,79073,1,0,0:0:0:50:snare1.wav
475,192,79428,1,0,0:0:0:0:
109,192,79783,1,0,0:0:0:50:snare1.wav
329,192,80138,1,0,0:0:0:0:
475,192,80493,1,0,0:0:0:50:snare1.wav
329,192,80848,1,0,0:0:0:0:
256,192,81025,1,0,0:0:0:50:snare1.wav
182,192,81203,128,0,81558:0:0:0:0:
402,192,81558,128,0,82978:0:0:0:0:
36,192,81558,1,0,0:0:0:0:
109,192,84398,1,0,0:0:0:0:
402,192,84398,1,0,0:0:0:0:
182,192,84575,1,0,0:0:0:0:
329,192,84753,1,0,0:0:0:0:
475,192,84930,1,0,0:0:0:0:
109,192,85108,1,0,0:0:0:0:
329,192,85286,1,0,0:0:0:0:
182,192,85463,1,0,0:0:0:0:
36,192,85641,1,0,0:0:0:0:
402,192,85818,1,4,0:0:0:0:
329,192,85818,1,4,0:0:0:0:
